  0
SECTION
  2
HEADER
  9
$ACADVER
  1
AC1012
  9
$DWGCODEPAGE
  3
ANSI_1252
  9
$INSBASE
 10
0.0
 20
0.0
 30
0.0
  9
$EXTMIN
 10
4.621500037990976
 20
3.465933837949972
 30
0.0
  9
$EXTMAX
 10
8.953406287990976
 20
6.956669808666237
 30
0.0
  9
$LIMMIN
 10
0.0
 20
0.0
  9
$LIMMAX
 10
12.0
 20
9.0
  9
$ORTHOMODE
 70
     0
  9
$REGENMODE
 70
     1
  9
$FILLMODE
 70
     1
  9
$QTEXTMODE
 70
     0
  9
$MIRRTEXT
 70
     1
  9
$DRAGMODE
 70
     2
  9
$LTSCALE
 40
1.0
  9
$OSMODE
 70
     0
  9
$ATTMODE
 70
     1
  9
$TEXTSIZE
 40
0.09375
  9
$TRACEWID
 40
0.05
  9
$TEXTSTYLE
  7
STANDARD
  9
$CLAYER
  8
0
  9
$CELTYPE
  6
BYLAYER
  9
$CECOLOR
 62
   256
  9
$CELTSCALE
 40
1.0
  9
$DELOBJ
 70
     1
  9
$DISPSILH
 70
     0
  9
$DIMSCALE
 40
0.5208333333333334
  9
$DIMASZ
 40
0.18
  9
$DIMEXO
 40
0.0625
  9
$DIMDLI
 40
0.38
  9
$DIMRND
 40
0.0
  9
$DIMDLE
 40
0.0
  9
$DIMEXE
 40
0.18
  9
$DIMTP
 40
0.0
  9
$DIMTM
 40
0.0
  9
$DIMTXT
 40
0.18
  9
$DIMCEN
 40
0.09
  9
$DIMTSZ
 40
0.0
  9
$DIMTOL
 70
     0
  9
$DIMLIM
 70
     0
  9
$DIMTIH
 70
     1
  9
$DIMTOH
 70
     1
  9
$DIMSE1
 70
     0
  9
$DIMSE2
 70
     0
  9
$DIMTAD
 70
     0
  9
$DIMZIN
 70
     0
  9
$DIMBLK
  1

  9
$DIMASO
 70
     1
  9
$DIMSHO
 70
     1
  9
$DIMPOST
  1

  9
$DIMAPOST
  1

  9
$DIMALT
 70
     0
  9
$DIMALTD
 70
     2
  9
$DIMALTF
 40
25.4
  9
$DIMLFAC
 40
1.0
  9
$DIMTOFL
 70
     0
  9
$DIMTVP
 40
0.0
  9
$DIMTIX
 70
     0
  9
$DIMSOXD
 70
     0
  9
$DIMSAH
 70
     0
  9
$DIMBLK1
  1

  9
$DIMBLK2
  1

  9
$DIMSTYLE
  2
STANDARD
  9
$DIMCLRD
 70
     0
  9
$DIMCLRE
 70
     0
  9
$DIMCLRT
 70
     0
  9
$DIMTFAC
 40
1.0
  9
$DIMGAP
 40
0.09
  9
$DIMJUST
 70
     0
  9
$DIMSD1
 70
     0
  9
$DIMSD2
 70
     0
  9
$DIMTOLJ
 70
     1
  9
$DIMTZIN
 70
     0
  9
$DIMALTZ
 70
     0
  9
$DIMALTTZ
 70
     0
  9
$DIMFIT
 70
     3
  9
$DIMUPT
 70
     0
  9
$DIMUNIT
 70
     2
  9
$DIMDEC
 70
     2
  9
$DIMTDEC
 70
     2
  9
$DIMALTU
 70
     2
  9
$DIMALTTD
 70
     2
  9
$DIMTXSTY
  7
STANDARD
  9
$DIMAUNIT
 70
     0
  9
$LUNITS
 70
     2
  9
$LUPREC
 70
     4
  9
$SKETCHINC
 40
0.1
  9
$FILLETRAD
 40
0.5
  9
$AUNITS
 70
     0
  9
$AUPREC
 70
     0
  9
$MENU
  1
.
  9
$ELEVATION
 40
0.0
  9
$PELEVATION
 40
0.0
  9
$THICKNESS
 40
0.0
  9
$LIMCHECK
 70
     0
  9
$BLIPMODE
 70
     0
  9
$CHAMFERA
 40
0.5
  9
$CHAMFERB
 40
0.5
  9
$CHAMFERC
 40
1.0
  9
$CHAMFERD
 40
0.0
  9
$SKPOLY
 70
     0
  9
$TDCREATE
 40
2452797.431069097
  9
$TDUPDATE
 40
2452797.466393900
  9
$TDINDWG
 40
0.0046365046
  9
$TDUSRTIMER
 40
0.0046365046
  9
$USRTIMER
 70
     1
  9
$ANGBASE
 50
0.0
  9
$ANGDIR
 70
     0
  9
$PDMODE
 70
     0
  9
$PDSIZE
 40
0.0
  9
$PLINEWID
 40
0.0
  9
$COORDS
 70
     1
  9
$SPLFRAME
 70
     0
  9
$SPLINETYPE
 70
     6
  9
$SPLINESEGS
 70
     8
  9
$ATTDIA
 70
     1
  9
$ATTREQ
 70
     1
  9
$HANDLING
 70
-16383
  9
$HANDSEED
  5
2A0
  9
$SURFTAB1
 70
     6
  9
$SURFTAB2
 70
     6
  9
$SURFTYPE
 70
     6
  9
$SURFU
 70
     6
  9
$SURFV
 70
     6
  9
$UCSNAME
  2

  9
$UCSORG
 10
0.0
 20
0.0
 30
0.0
  9
$UCSXDIR
 10
1.0
 20
0.0
 30
0.0
  9
$UCSYDIR
 10
0.0
 20
1.0
 30
0.0
  9
$PUCSNAME
  2

  9
$PUCSORG
 10
0.0
 20
0.0
 30
0.0
  9
$PUCSXDIR
 10
1.0
 20
0.0
 30
0.0
  9
$PUCSYDIR
 10
0.0
 20
1.0
 30
0.0
  9
$USERI1
 70
     0
  9
$USERI2
 70
     0
  9
$USERI3
 70
     0
  9
$USERI4
 70
     0
  9
$USERI5
 70
     0
  9
$USERR1
 40
0.09375
  9
$USERR2
 40
0.0
  9
$USERR3
 40
0.0
  9
$USERR4
 40
0.0
  9
$USERR5
 40
0.0
  9
$WORLDVIEW
 70
     1
  9
$SHADEDGE
 70
     3
  9
$SHADEDIF
 70
    70
  9
$TILEMODE
 70
     1
  9
$MAXACTVP
 70
    64
  9
$PINSBASE
 10
0.0
 20
0.0
 30
0.0
  9
$PLIMCHECK
 70
     0
  9
$PEXTMIN
 10
1.000000000000000E+20
 20
1.000000000000000E+20
 30
1.000000000000000E+20
  9
$PEXTMAX
 10
-1.000000000000000E+20
 20
-1.000000000000000E+20
 30
-1.000000000000000E+20
  9
$PLIMMIN
 10
0.0
 20
0.0
  9
$PLIMMAX
 10
12.0
 20
9.0
  9
$UNITMODE
 70
     0
  9
$VISRETAIN
 70
     1
  9
$PLINEGEN
 70
     0
  9
$PSLTSCALE
 70
     1
  9
$TREEDEPTH
 70
  3020
  9
$PICKSTYLE
 70
     1
  9
$CMLSTYLE
  2
STANDARD
  9
$CMLJUST
 70
     0
  9
$CMLSCALE
 40
1.0
  9
$SAVEIMAGES
 70
     1
  0
ENDSEC
  0
SECTION
  2
CLASSES
  0
CLASS
  1
ACDBDICTIONARYWDFLT
  2
AcDbDictionaryWithDefault
  3
AutoCAD 2000
 90
    32768
280
     0
281
     0
  0
CLASS
  1
ACDBPLACEHOLDER
  2
AcDbPlaceHolder
  3
AutoCAD 2000
 90
    32768
280
     0
281
     0
  0
CLASS
  1
LAYOUT
  2
AcDbLayout
  3
AutoCAD 2000
 90
    32768
280
     0
281
     0
  0
CLASS
  1
LONG_TRANSACTION
  2
AcDbLongTransaction
  3
AutoCAD 2000
 90
    32768
280
     0
281
     0
  0
CLASS
  1
LWPOLYLINE
  2
AcDbPolyline
  3
AutoCAD 2000
 90
    32768
280
     0
281
     1
  0
CLASS
  1
HATCH
  2
AcDbHatch
  3
AutoCAD 2000
 90
    32768
280
     0
281
     1
  0
CLASS
  1
XRECORD
  2
AcDbXrecord
  3
AutoCAD 2000
 90
    32768
280
     0
281
     0
  0
ENDSEC
  0
SECTION
  2
TABLES
  0
TABLE
  2
VPORT
  5
8
330
0
100
AcDbSymbolTable
 70
     3
  0
VPORT
  5
1F6
330
8
100
AcDbSymbolTableRecord
100
AcDbViewportTableRecord
  2
*ACTIVE
 70
     0
 10
0.0
 20
0.0
 11
1.0
 21
1.0
 12
7.951567742380539
 22
5.283088231257247
 13
0.0
 23
0.0
 14
0.5
 24
0.5
 15
0.5
 25
0.5
 16
0.0
 26
0.0
 36
1.0
 17
0.0
 27
0.0
 37
0.0
 40
11.54216818407197
 41
1.513903192584963
 42
50.0
 43
0.0
 44
0.0
 50
0.0
 51
0.0
 71
     0
 72
   100
 73
     1
 74
     3
 75
     0
 76
     0
 77
     0
 78
     0
  0
ENDTAB
  0
TABLE
  2
LTYPE
  5
5
330
0
100
AcDbSymbolTable
 70
     1
  0
LTYPE
  5
14
330
5
100
AcDbSymbolTableRecord
100
AcDbLinetypeTableRecord
  2
BYBLOCK
 70
     0
  3

 72
    65
 73
     0
 40
0.0
  0
LTYPE
  5
15
330
5
100
AcDbSymbolTableRecord
100
AcDbLinetypeTableRecord
  2
BYLAYER
 70
     0
  3

 72
    65
 73
     0
 40
0.0
  0
LTYPE
  5
16
330
5
100
AcDbSymbolTableRecord
100
AcDbLinetypeTableRecord
  2
CONTINUOUS
 70
     0
  3
Solid line
 72
    65
 73
     0
 40
0.0
  0
ENDTAB
  0
TABLE
  2
LAYER
  5
2
330
0
100
AcDbSymbolTable
 70
     5
  0
LAYER
  5
10
330
2
100
AcDbSymbolTableRecord
100
AcDbLayerTableRecord
  2
0
 70
     0
 62
     7
  6
CONTINUOUS
  0
LAYER
  5
34
330
2
100
AcDbSymbolTableRecord
100
AcDbLayerTableRecord
  2
L
 70
     0
 62
     7
  6
CONTINUOUS
  0
LAYER
  5
45
330
2
100
AcDbSymbolTableRecord
100
AcDbLayerTableRecord
  2
DEFPOINTS
 70
     0
 62
     7
  6
CONTINUOUS
  0
LAYER
  5
88
330
2
100
AcDbSymbolTableRecord
100
AcDbLayerTableRecord
  2
TX
 70
     0
 62
   150
  6
CONTINUOUS
  0
LAYER
  5
B5
330
2
100
AcDbSymbolTableRecord
100
AcDbLayerTableRecord
  2
MAIN
 70
     0
 62
     7
  6
CONTINUOUS
  0
ENDTAB
  0
TABLE
  2
STYLE
  5
3
330
0
100
AcDbSymbolTable
 70
     3
  0
STYLE
  5
11
330
3
100
AcDbSymbolTableRecord
100
AcDbTextStyleTableRecord
  2
STANDARD
 70
     0
 40
0.0
 41
1.0
 50
0.0
 71
     0
 42
0.09375
  3
txt
  4

  0
STYLE
  5
35
330
3
100
AcDbSymbolTableRecord
100
AcDbTextStyleTableRecord
  2
REG
 70
     0
 40
0.0
 41
1.0
 50
0.0
 71
     0
 42
0.09375
  3
E:\R13\com\fonts\ARCHITXT.SHX
  4

  0
STYLE
  5
36
330
3
100
AcDbSymbolTableRecord
100
AcDbTextStyleTableRecord
  2
DIMTXT
 70
     0
 40
0.0
 41
1.0
 50
0.0
 71
     0
 42
1.125
  3
archt.shx
  4

  0
ENDTAB
  0
TABLE
  2
VIEW
  5
6
330
0
100
AcDbSymbolTable
 70
     0
  0
ENDTAB
  0
TABLE
  2
UCS
  5
7
330
0
100
AcDbSymbolTable
 70
     0
  0
ENDTAB
  0
TABLE
  2
APPID
  5
9
330
0
100
AcDbSymbolTable
 70
     1
  0
APPID
  5
12
330
9
100
AcDbSymbolTableRecord
100
AcDbRegAppTableRecord
  2
ACAD
 70
     0
  0
ENDTAB
  0
TABLE
  2
DIMSTYLE
  5
A
330
0
100
AcDbSymbolTable
 70
    10
  0
DIMSTYLE
105
27
102
{ACAD_REACTORS
330
C0
330
CE
102
}
330
A
100
AcDbSymbolTableRecord
100
AcDbDimStyleTableRecord
  2
STANDARD
 70
     0
  3

  4

  5

  6

  7

 40
1.0
 41
0.18
 42
0.0625
 43
0.38
 44
0.18
 45
0.0
 46
0.0
 47
0.0
 48
0.0
140
0.18
141
0.09
142
0.0
143
25.4
144
1.0
145
0.0
146
1.0
147
0.09
 71
     0
 72
     0
 73
     1
 74
     1
 75
     0
 76
     0
 77
     0
 78
     0
170
     0
171
     2
172
     0
173
     0
174
     0
175
     0
176
     0
177
     0
178
     0
270
     2
271
     2
272
     2
273
     2
274
     2
340
11
275
     0
280
     0
281
     0
282
     0
283
     1
284
     0
285
     0
286
     0
287
     3
288
     0
  0
DIMSTYLE
105
37
330
A
100
AcDbSymbolTableRecord
100
AcDbDimStyleTableRecord
  2
1
 70
     0
  3

  4

  5

  6

  7

 40
1.0
 41
1.125
 42
0.5
 43
0.375
 44
1.19921875
 45
0.0
 46
0.5
 47
0.0
 48
0.0
140
1.125
141
0.125
142
0.0
143
25.4
144
1.0
145
0.0
146
0.8
147
0.5625
 71
     0
 72
     0
 73
     0
 74
     0
 75
     0
 76
     0
 77
     1
 78
     3
170
     0
171
     2
172
     1
173
     0
174
     1
175
     0
176
   133
177
   133
178
   150
270
     2
271
     3
272
     3
273
     2
274
     2
340
36
275
     0
280
     0
281
     0
282
     0
283
     1
284
     0
285
     0
286
     0
287
     4
288
     0
  0
DIMSTYLE
105
38
330
A
100
AcDbSymbolTableRecord
100
AcDbDimStyleTableRecord
  2
1$2
 70
     0
  3

  4

  5
DOTSMALL
  6

  7

 40
1.0
 41
1.5
 42
0.5
 43
0.375
 44
1.19921875
 45
0.0
 46
0.5
 47
0.0
 48
0.0
140
0.75
141
0.125
142
0.0
143
25.4
144
1.0
145
0.0
146
0.8
147
0.5625
 71
     0
 72
     0
 73
     0
 74
     0
 75
     0
 76
     0
 77
     1
 78
     3
170
     0
171
     2
172
     1
173
     0
174
     1
175
     0
176
   133
177
   133
178
   150
270
     2
271
     3
272
     3
273
     2
274
     2
340
36
275
     0
280
     0
281
     0
282
     0
283
     1
284
     0
285
     0
286
     0
287
     4
288
     0
  0
DIMSTYLE
105
39
330
A
100
AcDbSymbolTableRecord
100
AcDbDimStyleTableRecord
  2
1$4
 70
     0
  3

  4

  5

  6

  7
DOTSMALL
 40
1.0
 41
1.5
 42
0.5
 43
0.375
 44
1.19921875
 45
0.0
 46
0.5
 47
0.0
 48
0.0
140
0.75
141
0.125
142
0.0
143
25.4
144
1.0
145
0.0
146
0.8
147
0.5625
 71
     0
 72
     0
 73
     0
 74
     0
 75
     0
 76
     0
 77
     1
 78
     3
170
     0
171
     2
172
     1
173
     1
174
     1
175
     0
176
   133
177
   133
178
   150
270
     2
271
     3
272
     3
273
     2
274
     2
340
36
275
     0
280
     0
281
     0
282
     0
283
     1
284
     0
285
     0
286
     0
287
     4
288
     0
  0
DIMSTYLE
105
3A
330
A
100
AcDbSymbolTableRecord
100
AcDbDimStyleTableRecord
  2
1$3
 70
     0
  3

  4

  5
DOTSMALL
  6

  7

 40
1.0
 41
1.5
 42
0.5
 43
0.375
 44
1.19921875
 45
0.0
 46
0.5
 47
0.0
 48
0.0
140
0.75
141
0.125
142
0.0
143
25.4
144
1.0
145
0.0
146
0.8
147
0.5625
 71
     0
 72
     0
 73
     0
 74
     0
 75
     0
 76
     0
 77
     1
 78
     3
170
     0
171
     2
172
     1
173
     0
174
     1
175
     0
176
   133
177
   133
178
   150
270
     2
271
     3
272
     3
273
     2
274
     2
340
36
275
     0
280
     0
281
     0
282
     0
283
     1
284
     0
285
     0
286
     0
287
     4
288
     0
  0
DIMSTYLE
105
3B
330
A
100
AcDbSymbolTableRecord
100
AcDbDimStyleTableRecord
  2
1$7
 70
     0
  3

  4

  5

  6

  7

 40
1.0
 41
1.0
 42
0.5
 43
0.375
 44
1.19921875
 45
0.0
 46
0.5
 47
0.0
 48
0.0
140
0.75
141
0.125
142
0.0
143
25.4
144
1.0
145
0.0
146
0.8
147
0.5625
 71
     0
 72
     0
 73
     0
 74
     0
 75
     0
 76
     0
 77
     1
 78
     3
170
     0
171
     2
172
     1
173
     0
174
     1
175
     0
176
   133
177
   133
178
   150
270
     2
271
     3
272
     3
273
     2
274
     2
340
36
275
     0
280
     0
281
     0
282
     0
283
     1
284
     0
285
     0
286
     0
287
     4
288
     0
  0
DIMSTYLE
105
B6
330
A
100
AcDbSymbolTableRecord
100
AcDbDimStyleTableRecord
  2
STANDARD$2
 70
     0
  3

  4

  5
DOTSMALL
  6

  7

 40
1.0
 41
1.5
 42
0.5
 43
0.375
 44
0.5
 45
0.0
 46
0.5
 47
0.0
 48
0.0
140
0.75
141
0.125
142
0.0
143
25.4
144
1.0
145
0.0
146
0.8
147
0.25
 71
     0
 72
     0
 73
     0
 74
     0
 75
     0
 76
     0
 77
     1
 78
     4
170
     0
171
     2
172
     1
173
     0
174
     1
175
     0
176
   133
177
   133
178
   150
270
     2
271
     3
272
     3
273
     2
274
     2
340
36
275
     0
280
     0
281
     0
282
     0
283
     1
284
     0
285
     0
286
     0
287
     3
288
     0
  0
DIMSTYLE
105
B7
330
A
100
AcDbSymbolTableRecord
100
AcDbDimStyleTableRecord
  2
STANDARD$4
 70
     0
  3

  4

  5

  6
DOTSMALL
  7
DOTSMALL
 40
1.0
 41
1.5
 42
0.5
 43
0.375
 44
0.5
 45
0.0
 46
0.5
 47
0.0
 48
0.0
140
0.75
141
0.125
142
0.0
143
25.4
144
1.0
145
0.0
146
0.8
147
0.25
 71
     0
 72
     0
 73
     1
 74
     1
 75
     0
 76
     0
 77
     0
 78
     4
170
     0
171
     2
172
     1
173
     1
174
     1
175
     0
176
   133
177
   133
178
   150
270
     2
271
     3
272
     3
273
     2
274
     2
340
36
275
     0
280
     0
281
     0
282
     0
283
     1
284
     0
285
     0
286
     0
287
     3
288
     1
  0
DIMSTYLE
105
B8
330
A
100
AcDbSymbolTableRecord
100
AcDbDimStyleTableRecord
  2
STANDARD$3
 70
     0
  3

  4

  5
DOTSMALL
  6

  7

 40
1.0
 41
1.5
 42
0.5
 43
0.375
 44
0.5
 45
0.0
 46
0.5
 47
0.0
 48
0.0
140
0.75
141
0.125
142
0.0
143
25.4
144
1.0
145
0.0
146
0.8
147
0.25
 71
     0
 72
     0
 73
     1
 74
     1
 75
     0
 76
     0
 77
     0
 78
     4
170
     0
171
     2
172
     1
173
     0
174
     1
175
     0
176
   133
177
   133
178
   150
270
     2
271
     3
272
     3
273
     2
274
     2
340
36
275
     0
280
     0
281
     0
282
     0
283
     1
284
     0
285
     0
286
     0
287
     3
288
     1
  0
DIMSTYLE
105
B9
330
A
100
AcDbSymbolTableRecord
100
AcDbDimStyleTableRecord
  2
STANDARD$7
 70
     0
  3

  4

  5
DOTSMALL
  6

  7

 40
1.0
 41
1.5
 42
0.5
 43
0.375
 44
0.5
 45
0.0
 46
0.5
 47
0.0
 48
0.0
140
0.75
141
0.125
142
0.0
143
25.4
144
1.0
145
0.0
146
0.8
147
0.25
 71
     0
 72
     0
 73
     0
 74
     0
 75
     0
 76
     0
 77
     1
 78
     4
170
     0
171
     2
172
     1
173
     0
174
     1
175
     0
176
   133
177
   133
178
   150
270
     2
271
     3
272
     3
273
     2
274
     2
340
36
275
     0
280
     0
281
     0
282
     0
283
     1
284
     0
285
     0
286
     0
287
     3
288
     0
  0
ENDTAB
  0
TABLE
  2
BLOCK_RECORD
  5
1
330
0
100
AcDbSymbolTable
 70
     5
  0
BLOCK_RECORD
  5
1F
102
{ACAD_XDICTIONARY
360
1F9
102
}
330
1
100
AcDbSymbolTableRecord
100
AcDbBlockTableRecord
  2
*MODEL_SPACE
  0
BLOCK_RECORD
  5
1B
102
{ACAD_XDICTIONARY
360
1F7
102
}
330
1
100
AcDbSymbolTableRecord
100
AcDbBlockTableRecord
  2
*PAPER_SPACE
  0
BLOCK_RECORD
  5
2B
330
1
100
AcDbSymbolTableRecord
100
AcDbBlockTableRecord
  2
_DOT
  0
BLOCK_RECORD
  5
30
330
1
100
AcDbSymbolTableRecord
100
AcDbBlockTableRecord
  2
_DOTSMALL
  0
BLOCK_RECORD
  5
C1
330
1
100
AcDbSymbolTableRecord
100
AcDbBlockTableRecord
  2
*D3
  0
BLOCK_RECORD
  5
CF
330
1
100
AcDbSymbolTableRecord
100
AcDbBlockTableRecord
  2
*D4
  0
ENDTAB
  0
ENDSEC
  0
SECTION
  2
BLOCKS
  0
BLOCK
  5
20
330
1F
100
AcDbEntity
  8
0
100
AcDbBlockBegin
  2
*MODEL_SPACE
 70
     0
 10
0.0
 20
0.0
 30
0.0
  3
*MODEL_SPACE
  1

  0
ENDBLK
  5
21
330
1F
100
AcDbEntity
  8
0
100
AcDbBlockEnd
  0
BLOCK
  5
1C
330
1B
100
AcDbEntity
 67
     1
  8
0
100
AcDbBlockBegin
  2
*PAPER_SPACE
 70
     0
 10
0.0
 20
0.0
 30
0.0
  3
*PAPER_SPACE
  1

  0
ENDBLK
  5
1D
330
1B
100
AcDbEntity
 67
     1
  8
0
100
AcDbBlockEnd
  0
BLOCK
  5
2E
330
2B
100
AcDbEntity
  8
0
100
AcDbBlockBegin
  2
_DOT
 70
     0
 10
0.0
 20
0.0
 30
0.0
  3
_DOT
  1

  0
POLYLINE
  5
2C
330
2B
100
AcDbEntity
  8
L
 62
     0
100
AcDb2dPolyline
 66
     1
 10
0.0
 20
0.0
 30
0.0
 70
     1
 40
0.5
 41
0.5
  0
VERTEX
  5
1FD
330
2C
100
AcDbEntity
  8
L
 62
     0
100
AcDbVertex
100
AcDb2dVertex
 10
-0.25
 20
0.0
 30
0.0
 42
1.0
  0
VERTEX
  5
1FE
330
2C
100
AcDbEntity
  8
L
 62
     0
100
AcDbVertex
100
AcDb2dVertex
 10
0.25
 20
0.0
 30
0.0
 42
1.0
  0
SEQEND
  5
1FF
330
2C
100
AcDbEntity
  8
L
 62
     0
  0
LINE
  5
2D
330
2B
100
AcDbEntity
  8
L
 62
     0
100
AcDbLine
 10
-0.5
 20
0.0
 30
0.0
 11
-1.0
 21
0.0
 31
0.0
  0
ENDBLK
  5
2F
330
2B
100
AcDbEntity
  8
0
100
AcDbBlockEnd
  0
BLOCK
  5
32
330
30
100
AcDbEntity
  8
0
 48
0.116666
100
AcDbBlockBegin
  2
_DOTSMALL
 70
     0
 10
0.0
 20
0.0
 30
0.0
  3
_DOTSMALL
  1

  0
POLYLINE
  5
31
330
30
100
AcDbEntity
  8
0
  6
BYBLOCK
 62
     0
100
AcDb2dPolyline
 66
     1
 10
0.0
 20
0.0
 30
0.0
 70
     1
 40
0.5
 41
0.5
  0
VERTEX
  5
200
330
31
100
AcDbEntity
  8
0
  6
BYBLOCK
 62
     0
100
AcDbVertex
100
AcDb2dVertex
 10
-0.0625
 20
0.0
 30
0.0
 42
1.0
  0
VERTEX
  5
201
330
31
100
AcDbEntity
  8
0
  6
BYBLOCK
 62
     0
100
AcDbVertex
100
AcDb2dVertex
 10
0.0625
 20
0.0
 30
0.0
 42
1.0
  0
SEQEND
  5
202
330
31
100
AcDbEntity
  8
0
  6
BYBLOCK
 62
     0
  0
ENDBLK
  5
33
330
30
100
AcDbEntity
  8
0
 48
0.116666
100
AcDbBlockEnd
  0
BLOCK
  5
CC
330
C1
100
AcDbEntity
  8
0
100
AcDbBlockBegin
  2
*D3
 70
     1
 10
0.0
 20
0.0
 30
0.0
  3
*D3
  1

  0
LINE
  5
C2
330
C1
100
AcDbEntity
  8
0
 62
     0
100
AcDbLine
 10
5.798065910385986
 20
6.476403953193341
 30
0.0
 11
5.798065910385986
 21
6.956669808666237
 31
0.0
  0
LINE
  5
C3
330
C1
100
AcDbEntity
  8
0
 62
     0
100
AcDbLine
 10
8.086370350661155
 20
5.003160275056445
 30
0.0
 11
8.086370350661155
 21
6.956669808666237
 31
0.0
  0
LINE
  5
C4
330
C1
100
AcDbEntity
  8
0
 62
     0
100
AcDbLine
 10
5.891815910385986
 20
6.862919808666237
 30
0.0
 11
6.754718130523571
 21
6.862919808666237
 31
0.0
  0
LINE
  5
C5
330
C1
100
AcDbEntity
  8
0
 62
     0
100
AcDbLine
 10
7.992620350661155
 20
6.862919808666237
 30
0.0
 11
7.129718130523571
 21
6.862919808666237
 31
0.0
  0
SOLID
  5
C6
330
C1
100
AcDbEntity
  8
0
 62
     0
100
AcDbTrace
 10
5.891815910385986
 20
6.878544808666237
 30
0.0
 11
5.891815910385986
 21
6.847294808666237
 31
0.0
 12
5.798065910385986
 22
6.862919808666237
 32
0.0
 13
5.798065910385986
 23
6.862919808666237
 33
0.0
  0
SOLID
  5
C7
330
C1
100
AcDbEntity
  8
0
 62
     0
100
AcDbTrace
 10
7.992620350661155
 20
6.878544808666237
 30
0.0
 11
7.992620350661155
 21
6.847294808666237
 31
0.0
 12
8.086370350661155
 22
6.862919808666237
 32
0.0
 13
8.086370350661155
 23
6.862919808666237
 33
0.0
  0
MTEXT
  5
C8
330
C1
100
AcDbEntity
  8
0
 62
     0
100
AcDbMText
 10
6.942218130523571
 20
6.862919808666237
 30
0.0
 40
0.09375
 41
0.0
 71
     5
 72
     1
  1
\A1;2.29
1001
ACAD
1000
MTEXTBEGIN
1070
    73
1070
     1
1070
    44
1040
1.0
1070
    74
1070
     0
1000
MTEXTEND
  0
POINT
  5
C9
330
C1
100
AcDbEntity
  8
DEFPOINTS
 62
     0
100
AcDbPoint
 10
5.798065910385986
 20
6.443851869860008
 30
0.0
  0
POINT
  5
CA
330
C1
100
AcDbEntity
  8
DEFPOINTS
 62
     0
100
AcDbPoint
 10
8.086370350661155
 20
4.970608191723112
 30
0.0
  0
POINT
  5
CB
330
C1
100
AcDbEntity
  8
DEFPOINTS
 62
     0
100
AcDbPoint
 10
8.086370350661155
 20
6.862919808666237
 30
0.0
  0
ENDBLK
  5
CD
330
C1
100
AcDbEntity
  8
0
100
AcDbBlockEnd
  0
BLOCK
  5
DA
330
CF
100
AcDbEntity
  8
0
100
AcDbBlockBegin
  2
*D4
 70
     1
 10
0.0
 20
0.0
 30
0.0
  3
*D4
  1

  0
LINE
  5
D0
330
CF
100
AcDbEntity
  8
0
 62
     0
100
AcDbLine
 10
5.988259094916155
 20
6.501126885823578
 30
0.0
 11
5.195798573361678
 21
6.501126885823578
 31
0.0
  0
LINE
  5
D1
330
CF
100
AcDbEntity
  8
0
 62
     0
100
AcDbLine
 10
5.79551382704876
 20
4.301301994593085
 30
0.0
 11
5.195798573361678
 21
4.301301994593085
 31
0.0
  0
LINE
  5
D2
330
CF
100
AcDbEntity
  8
0
 62
     0
100
AcDbLine
 10
5.289548573361678
 20
6.407376885823578
 30
0.0
 11
5.289548573361678
 21
5.494964440208332
 31
0.0
  0
LINE
  5
D3
330
CF
100
AcDbEntity
  8
0
 62
     0
100
AcDbLine
 10
5.289548573361678
 20
4.395051994593085
 30
0.0
 11
5.289548573361678
 21
5.307464440208332
 31
0.0
  0
SOLID
  5
D4
330
CF
100
AcDbEntity
  8
0
 62
     0
100
AcDbTrace
 10
5.273923573361678
 20
6.407376885823578
 30
0.0
 11
5.305173573361678
 21
6.407376885823578
 31
0.0
 12
5.289548573361678
 22
6.501126885823578
 32
0.0
 13
5.289548573361678
 23
6.501126885823578
 33
0.0
  0
SOLID
  5
D5
330
CF
100
AcDbEntity
  8
0
 62
     0
100
AcDbTrace
 10
5.273923573361678
 20
4.395051994593085
 30
0.0
 11
5.305173573361678
 21
4.395051994593085
 31
0.0
 12
5.289548573361678
 22
4.301301994593085
 32
0.0
 13
5.289548573361678
 23
4.301301994593085
 33
0.0
  0
MTEXT
  5
D6
330
CF
100
AcDbEntity
  8
0
 62
     0
100
AcDbMText
 10
5.289548573361677
 20
5.401214440208333
 30
0.0
 40
0.09375
 41
0.0
 71
     5
 72
     1
  1
\A1;2.20
1001
ACAD
1000
MTEXTBEGIN
1070
    73
1070
     1
1070
    44
1040
1.0
1070
    74
1070
     0
1000
MTEXTEND
  0
POINT
  5
D7
330
CF
100
AcDbEntity
  8
DEFPOINTS
 62
     0
100
AcDbPoint
 10
6.020811178249488
 20
6.501126885823577
 30
0.0
  0
POINT
  5
D8
330
CF
100
AcDbEntity
  8
DEFPOINTS
 62
     0
100
AcDbPoint
 10
5.828065910382093
 20
4.301301994593085
 30
0.0
  0
POINT
  5
D9
330
CF
100
AcDbEntity
  8
DEFPOINTS
 62
     0
100
AcDbPoint
 10
5.289548573361678
 20
4.301301994593085
 30
0.0
  0
ENDBLK
  5
DB
330
CF
100
AcDbEntity
  8
0
100
AcDbBlockEnd
  0
ENDSEC
  0
SECTION
  2
ENTITIES
  0
DIMENSION
  5
C0
330
1F
100
AcDbEntity
  8
0
100
AcDbDimension
  2
*D3
 10
8.086370350661155
 20
6.862919808666237
 30
0.0
 11
6.942218130523571
 21
6.862919808666237
 31
0.0
 70
    32
  3
STANDARD
100
AcDbAlignedDimension
 13
5.798065910385986
 23
6.443851869860008
 33
0.0
 14
8.086370350661155
 24
4.970608191723112
 34
0.0
100
AcDbRotatedDimension
1001
ACAD
1000
DSTYLE
1002
{
1070
    40
1040
0.5208333333333334
1002
}
  0
DIMENSION
  5
CE
330
1F
100
AcDbEntity
  8
0
100
AcDbDimension
  2
*D4
 10
5.289548573361678
 20
4.301301994593085
 30
0.0
 11
5.289548573361677
 21
5.401214440208333
 31
0.0
 70
    32
  3
STANDARD
100
AcDbAlignedDimension
 13
6.020811178249488
 23
6.501126885823577
 33
0.0
 14
5.828065910382093
 24
4.301301994593085
 34
0.0
 50
90.0
100
AcDbRotatedDimension
1001
ACAD
1000
DSTYLE
1002
{
1070
    40
1040
0.5208333333333334
1002
}
  0
TEXT
  5
DC
330
1F
100
AcDbEntity
  8
TX
100
AcDbText
 10
4.715235880672018
 20
3.465933837949972
 30
0.0
 40
0.09375
  1
SCALE : 1" = 1"
 11
4.715235880672018
 21
3.559683837949972
 31
0.0
100
AcDbText
 73
     3
  0
TEXT
  5
DD
330
1F
100
AcDbEntity
  8
0
 62
     3
100
AcDbText
 10
4.715235880672018
 20
3.747155523312055
 30
0.0
 40
0.140625
  1
2 PART LARGE OUTER FRAME #1941
100
AcDbText
  0
POLYLINE
  5
DE
330
1F
100
AcDbEntity
  8
0
 62
     5
100
AcDb2dPolyline
 66
     1
 10
0.0
 20
0.0
 30
0.0
 40
0.028125
 41
0.028125
  0
VERTEX
  5
203
330
DE
100
AcDbEntity
  8
0
 62
     5
100
AcDbVertex
100
AcDb2dVertex
 10
4.621500037990976
 20
3.653419680631014
 30
0.0
  0
VERTEX
  5
204
330
DE
100
AcDbEntity
  8
0
 62
     5
100
AcDbVertex
100
AcDb2dVertex
 10
8.953406287990976
 20
3.653419680631014
 30
0.0
  0
SEQEND
  5
205
330
DE
100
AcDbEntity
  8
0
 62
     5
  0
POLYLINE
  5
15B
330
1F
100
AcDbEntity
  8
MAIN
 62
     5
100
AcDb2dPolyline
 66
     1
 10
0.0
 20
0.0
 30
0.0
 70
     1
  0
VERTEX
  5
206
330
15B
100
AcDbEntity
  8
MAIN
 62
     5
100
AcDbVertex
100
AcDb2dVertex
 10
6.867129740934444
 20
6.096911331469934
 30
0.0
 42
-0.3779644730101547
  0
VERTEX
  5
207
330
15B
100
AcDbEntity
  8
MAIN
 62
     5
100
AcDbVertex
100
AcDb2dVertex
 10
6.827443471268679
 20
6.096911331469934
 30
0.0
 42
0.3779644730101545
  0
VERTEX
  5
208
330
15B
100
AcDbEntity
  8
MAIN
 62
     5
100
AcDbVertex
100
AcDb2dVertex
 10
6.787757201602119
 20
6.096911331469934
 30
0.0
 42
-0.3779644730101547
  0
VERTEX
  5
209
330
15B
100
AcDbEntity
  8
MAIN
 62
     5
100
AcDbVertex
100
AcDb2dVertex
 10
6.748070931936354
 20
6.096911331469934
 30
0.0
 42
0.3779644730101545
  0
VERTEX
  5
20A
330
15B
100
AcDbEntity
  8
MAIN
 62
     5
100
AcDbVertex
100
AcDb2dVertex
 10
6.708384662269793
 20
6.096911331469934
 30
0.0
 42
-0.3779644730101547
  0
VERTEX
  5
20B
330
15B
100
AcDbEntity
  8
MAIN
 62
     5
100
AcDbVertex
100
AcDb2dVertex
 10
6.668698392604197
 20
6.096911331470126
 30
0.0
 42
0.1826758136888717
  0
VERTEX
  5
20C
330
15B
100
AcDbEntity
  8
MAIN
 62
     5
100
AcDbVertex
100
AcDb2dVertex
 10
6.648855257770293
 20
6.104411331469417
 30
0.0
  0
VERTEX
  5
20D
330
15B
100
AcDbEntity
  8
MAIN
 62
     5
100
AcDbVertex
100
AcDb2dVertex
 10
6.172620021776339
 20
6.104411331469463
 30
0.0
 42
0.1826758136790817
  0
VERTEX
  5
20E
330
15B
100
AcDbEntity
  8
MAIN
 62
     5
100
AcDbVertex
100
AcDb2dVertex
 10
6.152776886943513
 20
6.096911331469934
 30
0.0
 42
-0.3779644730101547
  0
VERTEX
  5
20F
330
15B
100
AcDbEntity
  8
MAIN
 62
     5
100
AcDbVertex
100
AcDb2dVertex
 10
6.113090617277748
 20
6.096911331469934
 30
0.0
 42
0.3779644730101545
  0
VERTEX
  5
210
330
15B
100
AcDbEntity
  8
MAIN
 62
     5
100
AcDbVertex
100
AcDb2dVertex
 10
6.073404347611187
 20
6.096911331469934
 30
0.0
 42
-0.3779644730101547
  0
VERTEX
  5
211
330
15B
100
AcDbEntity
  8
MAIN
 62
     5
100
AcDbVertex
100
AcDb2dVertex
 10
6.033718077945422
 20
6.096911331469934
 30
0.0
 42
0.3779644730101545
  0
VERTEX
  5
212
330
15B
100
AcDbEntity
  8
MAIN
 62
     5
100
AcDbVertex
100
AcDb2dVertex
 10
5.994031808278885
 20
6.096911331469908
 30
0.0
 42
-0.4738173399087769
  0
VERTEX
  5
213
330
15B
100
AcDbEntity
  8
MAIN
 62
     5
100
AcDbVertex
100
AcDb2dVertex
 10
5.948207911332275
 20
6.104411331470327
 30
0.0
  0
VERTEX
  5
214
330
15B
100
AcDbEntity
  8
MAIN
 62
     5
100
AcDbVertex
100
AcDb2dVertex
 10
5.897923909438787
 20
6.104411331467144
 30
0.0
 42
-0.4142135623464566
  0
VERTEX
  5
215
330
15B
100
AcDbEntity
  8
MAIN
 62
     5
100
AcDbVertex
100
AcDb2dVertex
 10
5.887923909438569
 20
6.114411331467817
 30
0.0
  0
VERTEX
  5
216
330
15B
100
AcDbEntity
  8
MAIN
 62
     5
100
AcDbVertex
100
AcDb2dVertex
 10
5.88792390943766
 20
6.362411331468319
 30
0.0
 42
-0.4142135623730951
  0
VERTEX
  5
217
330
15B
100
AcDbEntity
  8
MAIN
 62
     5
100
AcDbVertex
100
AcDb2dVertex
 10
5.897923909437878
 20
6.372411331468537
 30
0.0
  0
VERTEX
  5
218
330
15B
100
AcDbEntity
  8
MAIN
 62
     5
100
AcDbVertex
100
AcDb2dVertex
 10
5.948207911332707
 20
6.372411331468287
 30
0.0
 42
-0.4738173399087769
  0
VERTEX
  5
219
330
15B
100
AcDbEntity
  8
MAIN
 62
     5
100
AcDbVertex
100
AcDb2dVertex
 10
5.99403180827926
 20
6.379911331469381
 30
0.0
 42
0.3779644730101546
  0
VERTEX
  5
21A
330
15B
100
AcDbEntity
  8
MAIN
 62
     5
100
AcDbVertex
100
AcDb2dVertex
 10
6.033718077945025
 20
6.379911331469381
 30
0.0
 42
-0.3779644730101545
  0
VERTEX
  5
21B
330
15B
100
AcDbEntity
  8
MAIN
 62
     5
100
AcDbVertex
100
AcDb2dVertex
 10
6.073404347611585
 20
6.379911331469381
 30
0.0
 42
0.3779644730101546
  0
VERTEX
  5
21C
330
15B
100
AcDbEntity
  8
MAIN
 62
     5
100
AcDbVertex
100
AcDb2dVertex
 10
6.11309061727735
 20
6.379911331469381
 30
0.0
 42
-0.3779644730101545
  0
VERTEX
  5
21D
330
15B
100
AcDbEntity
  8
MAIN
 62
     5
100
AcDbVertex
100
AcDb2dVertex
 10
6.152776886943261
 20
6.379911331468644
 30
0.0
 42
0.182675813682304
  0
VERTEX
  5
21E
330
15B
100
AcDbEntity
  8
MAIN
 62
     5
100
AcDbVertex
100
AcDb2dVertex
 10
6.172620021776339
 20
6.372411331468537
 30
0.0
  0
VERTEX
  5
21F
330
15B
100
AcDbEntity
  8
MAIN
 62
     5
100
AcDbVertex
100
AcDb2dVertex
 10
6.648855257770293
 20
6.37241133146789
 30
0.0
 42
0.182675813690136
  0
VERTEX
  5
220
330
15B
100
AcDbEntity
  8
MAIN
 62
     5
100
AcDbVertex
100
AcDb2dVertex
 10
6.66869839260363
 20
6.379911331469381
 30
0.0
 42
-0.3779644730101545
  0
VERTEX
  5
221
330
15B
100
AcDbEntity
  8
MAIN
 62
     5
100
AcDbVertex
100
AcDb2dVertex
 10
6.708384662270191
 20
6.379911331469381
 30
0.0
 42
0.3779644730101546
  0
VERTEX
  5
222
330
15B
100
AcDbEntity
  8
MAIN
 62
     5
100
AcDbVertex
100
AcDb2dVertex
 10
6.748070931935956
 20
6.379911331469381
 30
0.0
 42
-0.3779644730101545
  0
VERTEX
  5
223
330
15B
100
AcDbEntity
  8
MAIN
 62
     5
100
AcDbVertex
100
AcDb2dVertex
 10
6.787757201602516
 20
6.379911331469381
 30
0.0
 42
0.3779644730101546
  0
VERTEX
  5
224
330
15B
100
AcDbEntity
  8
MAIN
 62
     5
100
AcDbVertex
100
AcDb2dVertex
 10
6.827443471268281
 20
6.379911331469381
 30
0.0
 42
-0.3779644730101545
  0
VERTEX
  5
225
330
15B
100
AcDbEntity
  8
MAIN
 62
     5
100
AcDbVertex
100
AcDb2dVertex
 10
6.867129740934842
 20
6.379911331469381
 30
0.0
 42
0.3779644730101546
  0
VERTEX
  5
226
330
15B
100
AcDbEntity
  8
MAIN
 62
     5
100
AcDbVertex
100
AcDb2dVertex
 10
6.906816010600723
 20
6.379911331469249
 30
0.0
 42
-0.4738173398895604
  0
VERTEX
  5
227
330
15B
100
AcDbEntity
  8
MAIN
 62
     5
100
AcDbVertex
100
AcDb2dVertex
 10
6.952639907545773
 20
6.372411331471266
 30
0.0
  0
VERTEX
  5
228
330
15B
100
AcDbEntity
  8
MAIN
 62
     5
100
AcDbVertex
100
AcDb2dVertex
 10
7.00292390943926
 20
6.372411331467617
 30
0.0
 42
-0.4142135623730951
  0
VERTEX
  5
229
330
15B
100
AcDbEntity
  8
MAIN
 62
     5
100
AcDbVertex
100
AcDb2dVertex
 10
7.012923909439479
 20
6.362411331467409
 30
0.0
  0
VERTEX
  5
22A
330
15B
100
AcDbEntity
  8
MAIN
 62
     5
100
AcDbVertex
100
AcDb2dVertex
 10
7.012923909437695
 20
6.114411331468726
 30
0.0
 42
-0.4142135623730951
  0
VERTEX
  5
22B
330
15B
100
AcDbEntity
  8
MAIN
 62
     5
100
AcDbVertex
100
AcDb2dVertex
 10
7.002923909437441
 20
6.104411331468508
 30
0.0
  0
VERTEX
  5
22C
330
15B
100
AcDbEntity
  8
MAIN
 62
     5
100
AcDbVertex
100
AcDb2dVertex
 10
6.952639907545664
 20
6.104411331467661
 30
0.0
 42
-0.4738173398895606
  0
VERTEX
  5
22D
330
15B
100
AcDbEntity
  8
MAIN
 62
     5
100
AcDbVertex
100
AcDb2dVertex
 10
6.906816010601005
 20
6.096911331469934
 30
0.0
 42
0.3779644730101545
  0
SEQEND
  5
22E
330
15B
100
AcDbEntity
  8
MAIN
 62
     5
  0
POLYLINE
  5
1CB
330
1F
100
AcDbEntity
  8
MAIN
 62
     5
100
AcDb2dPolyline
 66
     1
 10
0.0
 20
0.0
 30
0.0
 70
     1
  0
VERTEX
  5
22F
330
1CB
100
AcDbEntity
  8
MAIN
 62
     5
100
AcDbVertex
100
AcDb2dVertex
 10
7.92237035066276
 20
4.611608191722734
 30
0.0
 42
-0.9999999999278175
  0
VERTEX
  5
230
330
1CB
100
AcDbEntity
  8
MAIN
 62
     5
100
AcDbVertex
100
AcDb2dVertex
 10
7.922370350663214
 20
4.674608191722835
 30
0.0
  0
VERTEX
  5
231
330
1CB
100
AcDbEntity
  8
MAIN
 62
     5
100
AcDbVertex
100
AcDb2dVertex
 10
7.998370350661417
 20
4.674608191721926
 30
0.0
 42
0.4142135623730951
  0
VERTEX
  5
232
330
1CB
100
AcDbEntity
  8
MAIN
 62
     5
100
AcDbVertex
100
AcDb2dVertex
 10
8.008370350663454
 20
4.684608191722144
 30
0.0
  0
VERTEX
  5
233
330
1CB
100
AcDbEntity
  8
MAIN
 62
     5
100
AcDbVertex
100
AcDb2dVertex
 10
8.008370350660726
 20
4.932608191722646
 30
0.0
 42
0.4142135622132641
  0
VERTEX
  5
234
330
1CB
100
AcDbEntity
  8
MAIN
 62
     5
100
AcDbVertex
100
AcDb2dVertex
 10
7.998370350660508
 20
4.942608191722865
 30
0.0
  0
VERTEX
  5
235
330
1CB
100
AcDbEntity
  8
MAIN
 62
     5
100
AcDbVertex
100
AcDb2dVertex
 10
7.998370350660508
 20
4.942608191723774
 30
0.0
  0
VERTEX
  5
236
330
1CB
100
AcDbEntity
  8
MAIN
 62
     5
100
AcDbVertex
100
AcDb2dVertex
 10
6.893370350661854
 20
4.942608191723774
 30
0.0
 42
0.4142135623464566
  0
VERTEX
  5
237
330
1CB
100
AcDbEntity
  8
MAIN
 62
     5
100
AcDbVertex
100
AcDb2dVertex
 10
6.883370350661635
 20
4.932608191722646
 30
0.0
  0
VERTEX
  5
238
330
1CB
100
AcDbEntity
  8
MAIN
 62
     5
100
AcDbVertex
100
AcDb2dVertex
 10
6.883370350651631
 20
4.684608191721235
 30
0.0
  0
VERTEX
  5
239
330
1CB
100
AcDbEntity
  8
MAIN
 62
     5
100
AcDbVertex
100
AcDb2dVertex
 10
6.883370350651176
 20
4.684608191721235
 30
0.0
 42
0.4142135623730951
  0
VERTEX
  5
23A
330
1CB
100
AcDbEntity
  8
MAIN
 62
     5
100
AcDbVertex
100
AcDb2dVertex
 10
6.893370350660035
 20
4.67460819172329
 30
0.0
  0
VERTEX
  5
23B
330
1CB
100
AcDbEntity
  8
MAIN
 62
     5
100
AcDbVertex
100
AcDb2dVertex
 10
6.893370350660035
 20
4.674608191722835
 30
0.0
  0
VERTEX
  5
23C
330
1CB
100
AcDbEntity
  8
MAIN
 62
     5
100
AcDbVertex
100
AcDb2dVertex
 10
6.959370350662567
 20
4.674608191723745
 30
0.0
 42
-1.000000000000003
  0
VERTEX
  5
23D
330
1CB
100
AcDbEntity
  8
MAIN
 62
     5
100
AcDbVertex
100
AcDb2dVertex
 10
6.959370350662567
 20
4.611608191723643
 30
0.0
  0
VERTEX
  5
23E
330
1CB
100
AcDbEntity
  8
MAIN
 62
     5
100
AcDbVertex
100
AcDb2dVertex
 10
6.865370350661606
 20
4.611608191724553
 30
0.0
  0
VERTEX
  5
23F
330
1CB
100
AcDbEntity
  8
MAIN
 62
     5
100
AcDbVertex
100
AcDb2dVertex
 10
6.865370350661606
 20
4.611608191723643
 30
0.0
 42
-0.4142135623730951
  0
VERTEX
  5
240
330
1CB
100
AcDbEntity
  8
MAIN
 62
     5
100
AcDbVertex
100
AcDb2dVertex
 10
6.805370350662116
 20
4.671608191724953
 30
0.0
  0
VERTEX
  5
241
330
1CB
100
AcDbEntity
  8
MAIN
 62
     5
100
AcDbVertex
100
AcDb2dVertex
 10
6.805370350661206
 20
4.890608191723185
 30
0.0
  0
VERTEX
  5
242
330
1CB
100
AcDbEntity
  8
MAIN
 62
     5
100
AcDbVertex
100
AcDb2dVertex
 10
6.805370350661661
 20
4.890608191723185
 30
0.0
 42
0.4142135623664355
  0
VERTEX
  5
243
330
1CB
100
AcDbEntity
  8
MAIN
 62
     5
100
AcDbVertex
100
AcDb2dVertex
 10
6.765370350661243
 20
4.930608191722694
 30
0.0
  0
VERTEX
  5
244
330
1CB
100
AcDbEntity
  8
MAIN
 62
     5
100
AcDbVertex
100
AcDb2dVertex
 10
6.765370350661243
 20
4.930608191723148
 30
0.0
  0
VERTEX
  5
245
330
1CB
100
AcDbEntity
  8
MAIN
 62
     5
100
AcDbVertex
100
AcDb2dVertex
 10
6.472065910385055
 20
4.930608191724967
 30
0.0
  0
VERTEX
  5
246
330
1CB
100
AcDbEntity
  8
MAIN
 62
     5
100
AcDbVertex
100
AcDb2dVertex
 10
6.472065910385055
 20
4.930608191724996
 30
0.0
 42
-1.317375525603878
  0
VERTEX
  5
247
330
1CB
100
AcDbEntity
  8
MAIN
 62
     5
100
AcDbVertex
100
AcDb2dVertex
 10
6.498480451306975
 20
5.025234697746078
 30
0.0
  0
VERTEX
  5
248
330
1CB
100
AcDbEntity
  8
MAIN
 62
     5
100
AcDbVertex
100
AcDb2dVertex
 10
6.498480451306775
 20
5.025234697745749
 30
0.0
 42
0.1369547240359738
  0
VERTEX
  5
249
330
1CB
100
AcDbEntity
  8
MAIN
 62
     5
100
AcDbVertex
100
AcDb2dVertex
 10
6.51505428090607
 20
5.02060819172136
 30
0.0
  0
VERTEX
  5
24A
330
1CB
100
AcDbEntity
  8
MAIN
 62
     5
100
AcDbVertex
100
AcDb2dVertex
 10
6.51505428090607
 20
5.020608191721475
 30
0.0
  0
VERTEX
  5
24B
330
1CB
100
AcDbEntity
  8
MAIN
 62
     5
100
AcDbVertex
100
AcDb2dVertex
 10
6.676065910389326
 20
5.020608191724203
 30
0.0
  0
VERTEX
  5
24C
330
1CB
100
AcDbEntity
  8
MAIN
 62
     5
100
AcDbVertex
100
AcDb2dVertex
 10
6.676065910389326
 20
5.020608191724658
 30
0.0
 42
0.4142135623730951
  0
VERTEX
  5
24D
330
1CB
100
AcDbEntity
  8
MAIN
 62
     5
100
AcDbVertex
100
AcDb2dVertex
 10
6.708065910386295
 20
5.052608191719809
 30
0.0
  0
VERTEX
  5
24E
330
1CB
100
AcDbEntity
  8
MAIN
 62
     5
100
AcDbVertex
100
AcDb2dVertex
 10
6.70806591038584
 20
5.052608191719809
 30
0.0
  0
VERTEX
  5
24F
330
1CB
100
AcDbEntity
  8
MAIN
 62
     5
100
AcDbVertex
100
AcDb2dVertex
 10
6.707923909436459
 20
5.954411331467962
 30
0.0
 42
0.4142135623686553
  0
VERTEX
  5
250
330
1CB
100
AcDbEntity
  8
MAIN
 62
     5
100
AcDbVertex
100
AcDb2dVertex
 10
6.647923909436968
 20
6.014411331468362
 30
0.0
  0
VERTEX
  5
251
330
1CB
100
AcDbEntity
  8
MAIN
 62
     5
100
AcDbVertex
100
AcDb2dVertex
 10
6.307923909437732
 20
6.014411331467453
 30
0.0
  0
VERTEX
  5
252
330
1CB
100
AcDbEntity
  8
MAIN
 62
     5
100
AcDbVertex
100
AcDb2dVertex
 10
6.297923909437514
 20
6.024411331467671
 30
0.0
  0
VERTEX
  5
253
330
1CB
100
AcDbEntity
  8
MAIN
 62
     5
100
AcDbVertex
100
AcDb2dVertex
 10
6.287923909437296
 20
6.014411331467453
 30
0.0
  0
VERTEX
  5
254
330
1CB
100
AcDbEntity
  8
MAIN
 62
     5
100
AcDbVertex
100
AcDb2dVertex
 10
5.947923909438969
 20
6.014411331466543
 30
0.0
 42
0.4142135623775348
  0
VERTEX
  5
255
330
1CB
100
AcDbEntity
  8
MAIN
 62
     5
100
AcDbVertex
100
AcDb2dVertex
 10
5.88792390943766
 20
5.954411331467962
 30
0.0
  0
VERTEX
  5
256
330
1CB
100
AcDbEntity
  8
MAIN
 62
     5
100
AcDbVertex
100
AcDb2dVertex
 10
5.887923909438569
 20
5.954411331467962
 30
0.0
  0
VERTEX
  5
257
330
1CB
100
AcDbEntity
  8
MAIN
 62
     5
100
AcDbVertex
100
AcDb2dVertex
 10
5.888065910385222
 20
5.624301994594315
 30
0.0
  0
VERTEX
  5
258
330
1CB
100
AcDbEntity
  8
MAIN
 62
     5
100
AcDbVertex
100
AcDb2dVertex
 10
5.888065910384767
 20
5.624301994594315
 30
0.0
 42
0.4142135623664355
  0
VERTEX
  5
259
330
1CB
100
AcDbEntity
  8
MAIN
 62
     5
100
AcDbVertex
100
AcDb2dVertex
 10
5.928065910385186
 20
5.584301994594806
 30
0.0
  0
VERTEX
  5
25A
330
1CB
100
AcDbEntity
  8
MAIN
 62
     5
100
AcDbVertex
100
AcDb2dVertex
 10
5.928065910385186
 20
5.584301994594351
 30
0.0
  0
VERTEX
  5
25B
330
1CB
100
AcDbEntity
  8
MAIN
 62
     5
100
AcDbVertex
100
AcDb2dVertex
 10
6.04106591038456
 20
5.584301994594351
 30
0.0
  0
VERTEX
  5
25C
330
1CB
100
AcDbEntity
  8
MAIN
 62
     5
100
AcDbVertex
100
AcDb2dVertex
 10
6.04106591038456
 20
5.584301994593896
 30
0.0
 42
-0.4142135623864143
  0
VERTEX
  5
25D
330
1CB
100
AcDbEntity
  8
MAIN
 62
     5
100
AcDbVertex
100
AcDb2dVertex
 10
6.081065910384978
 20
5.544301994591659
 30
0.0
  0
VERTEX
  5
25E
330
1CB
100
AcDbEntity
  8
MAIN
 62
     5
100
AcDbVertex
100
AcDb2dVertex
 10
6.081065910384523
 20
5.544301994591659
 30
0.0
  0
VERTEX
  5
25F
330
1CB
100
AcDbEntity
  8
MAIN
 62
     5
100
AcDbVertex
100
AcDb2dVertex
 10
6.081065910380885
 20
5.47630199458781
 30
0.0
 42
-1.000000000014436
  0
VERTEX
  5
260
330
1CB
100
AcDbEntity
  8
MAIN
 62
     5
100
AcDbVertex
100
AcDb2dVertex
 10
6.018065910380784
 20
5.476301994592358
 30
0.0
  0
VERTEX
  5
261
330
1CB
100
AcDbEntity
  8
MAIN
 62
     5
100
AcDbVertex
100
AcDb2dVertex
 10
6.018065910383512
 20
5.511301994594941
 30
0.0
 42
0.4142135623730951
  0
VERTEX
  5
262
330
1CB
100
AcDbEntity
  8
MAIN
 62
     5
100
AcDbVertex
100
AcDb2dVertex
 10
6.008065910383294
 20
5.521301994595159
 30
0.0
  0
VERTEX
  5
263
330
1CB
100
AcDbEntity
  8
MAIN
 62
     5
100
AcDbVertex
100
AcDb2dVertex
 10
5.898065910383621
 20
5.521301994594249
 30
0.0
 42
0.4142135623730951
  0
VERTEX
  5
264
330
1CB
100
AcDbEntity
  8
MAIN
 62
     5
100
AcDbVertex
100
AcDb2dVertex
 10
5.888065910383403
 20
5.511301994594031
 30
0.0
  0
VERTEX
  5
265
330
1CB
100
AcDbEntity
  8
MAIN
 62
     5
100
AcDbVertex
100
AcDb2dVertex
 10
5.888065910383403
 20
4.401301994594359
 30
0.0
 42
0.4142135623730951
  0
VERTEX
  5
266
330
1CB
100
AcDbEntity
  8
MAIN
 62
     5
100
AcDbVertex
100
AcDb2dVertex
 10
5.898065910383621
 20
4.39130199459414
 30
0.0
  0
VERTEX
  5
267
330
1CB
100
AcDbEntity
  8
MAIN
 62
     5
100
AcDbVertex
100
AcDb2dVertex
 10
6.008065910382384
 20
4.39130199459414
 30
0.0
 42
0.4142135623730951
  0
VERTEX
  5
268
330
1CB
100
AcDbEntity
  8
MAIN
 62
     5
100
AcDbVertex
100
AcDb2dVertex
 10
6.018065910382603
 20
4.401301994594359
 30
0.0
  0
VERTEX
  5
269
330
1CB
100
AcDbEntity
  8
MAIN
 62
     5
100
AcDbVertex
100
AcDb2dVertex
 10
6.018065910381693
 20
4.436301994594213
 30
0.0
 42
-1.000000000000003
  0
VERTEX
  5
26A
330
1CB
100
AcDbEntity
  8
MAIN
 62
     5
100
AcDbVertex
100
AcDb2dVertex
 10
6.108065910381839
 20
4.436301994594213
 30
0.0
  0
VERTEX
  5
26B
330
1CB
100
AcDbEntity
  8
MAIN
 62
     5
100
AcDbVertex
100
AcDb2dVertex
 10
6.108065910383658
 20
4.420335734441504
 30
0.0
  0
VERTEX
  5
26C
330
1CB
100
AcDbEntity
  8
MAIN
 62
     5
100
AcDbVertex
100
AcDb2dVertex
 10
6.108065910384529
 20
4.420335734441504
 30
0.0
 42
0.367894174896604
  0
VERTEX
  5
26D
330
1CB
100
AcDbEntity
  8
MAIN
 62
     5
100
AcDbVertex
100
AcDb2dVertex
 10
6.133265913817058
 20
4.390722259682947
 30
0.0
  0
VERTEX
  5
26E
330
1CB
100
AcDbEntity
  8
MAIN
 62
     5
100
AcDbVertex
100
AcDb2dVertex
 10
6.133265913817059
 20
4.390722259682958
 30
0.0
 42
-0.9227176940825545
  0
VERTEX
  5
26F
330
1CB
100
AcDbEntity
  8
MAIN
 62
     5
100
AcDbVertex
100
AcDb2dVertex
 10
6.126065910384596
 20
4.301301994595932
 30
0.0
  0
VERTEX
  5
270
330
1CB
100
AcDbEntity
  8
MAIN
 62
     5
100
AcDbVertex
100
AcDb2dVertex
 10
6.126065910384596
 20
4.301301994595814
 30
0.0
  0
VERTEX
  5
271
330
1CB
100
AcDbEntity
  8
MAIN
 62
     5
100
AcDbVertex
100
AcDb2dVertex
 10
5.828065910382093
 20
4.301301994593085
 30
0.0
  0
VERTEX
  5
272
330
1CB
100
AcDbEntity
  8
MAIN
 62
     5
100
AcDbVertex
100
AcDb2dVertex
 10
5.828065910382093
 20
4.30130199459263
 30
0.0
 42
-0.4142135623908542
  0
VERTEX
  5
273
330
1CB
100
AcDbEntity
  8
MAIN
 62
     5
100
AcDbVertex
100
AcDb2dVertex
 10
5.798065910381893
 20
4.331301994592831
 30
0.0
  0
VERTEX
  5
274
330
1CB
100
AcDbEntity
  8
MAIN
 62
     5
100
AcDbVertex
100
AcDb2dVertex
 10
5.798065910382348
 20
4.331301994592831
 30
0.0
  0
VERTEX
  5
275
330
1CB
100
AcDbEntity
  8
MAIN
 62
     5
100
AcDbVertex
100
AcDb2dVertex
 10
5.798065910385986
 20
6.443851869860008
 30
0.0
  0
VERTEX
  5
276
330
1CB
100
AcDbEntity
  8
MAIN
 62
     5
100
AcDbVertex
100
AcDb2dVertex
 10
5.798065910385267
 20
6.443851869860008
 30
0.0
 42
-0.6040724509472606
  0
VERTEX
  5
277
330
1CB
100
AcDbEntity
  8
MAIN
 62
     5
100
AcDbVertex
100
AcDb2dVertex
 10
5.82940554721233
 20
6.460326449137911
 30
0.0
  0
VERTEX
  5
278
330
1CB
100
AcDbEntity
  8
MAIN
 62
     5
100
AcDbVertex
100
AcDb2dVertex
 10
5.829405547212625
 20
6.460326449138339
 30
0.0
 42
0.4220322581402554
  0
VERTEX
  5
279
330
1CB
100
AcDbEntity
  8
MAIN
 62
     5
100
AcDbVertex
100
AcDb2dVertex
 10
6.012122140480754
 20
6.496580058662528
 30
0.0
  0
VERTEX
  5
27A
330
1CB
100
AcDbEntity
  8
MAIN
 62
     5
100
AcDbVertex
100
AcDb2dVertex
 10
6.012122140481081
 20
6.496580058662316
 30
0.0
 42
-0.2619988811949898
  0
VERTEX
  5
27B
330
1CB
100
AcDbEntity
  8
MAIN
 62
     5
100
AcDbVertex
100
AcDb2dVertex
 10
6.020811178249471
 20
6.501126885823031
 30
0.0
  0
VERTEX
  5
27C
330
1CB
100
AcDbEntity
  8
MAIN
 62
     5
100
AcDbVertex
100
AcDb2dVertex
 10
6.020811178249488
 20
6.501126885823577
 30
0.0
  0
VERTEX
  5
27D
330
1CB
100
AcDbEntity
  8
MAIN
 62
     5
100
AcDbVertex
100
AcDb2dVertex
 10
6.395211161988328
 20
6.489749583888805
 30
0.0
  0
VERTEX
  5
27E
330
1CB
100
AcDbEntity
  8
MAIN
 62
     5
100
AcDbVertex
100
AcDb2dVertex
 10
6.410789730117386
 20
6.474171015762475
 30
0.0
  0
VERTEX
  5
27F
330
1CB
100
AcDbEntity
  8
MAIN
 62
     5
100
AcDbVertex
100
AcDb2dVertex
 10
6.425449415355643
 20
6.488830701000733
 30
0.0
  0
VERTEX
  5
280
330
1CB
100
AcDbEntity
  8
MAIN
 62
     5
100
AcDbVertex
100
AcDb2dVertex
 10
6.659513592532704
 20
6.481717936760286
 30
0.0
  0
VERTEX
  5
281
330
1CB
100
AcDbEntity
  8
MAIN
 62
     5
100
AcDbVertex
100
AcDb2dVertex
 10
6.659513592532724
 20
6.481717936760945
 30
0.0
 42
0.4231395420107761
  0
VERTEX
  5
282
330
1CB
100
AcDbEntity
  8
MAIN
 62
     5
100
AcDbVertex
100
AcDb2dVertex
 10
6.669817333262995
 20
6.49171332277292
 30
0.0
  0
VERTEX
  5
283
330
1CB
100
AcDbEntity
  8
MAIN
 62
     5
100
AcDbVertex
100
AcDb2dVertex
 10
6.669817333263409
 20
6.49171332277292
 30
0.0
  0
VERTEX
  5
284
330
1CB
100
AcDbEntity
  8
MAIN
 62
     5
100
AcDbVertex
100
AcDb2dVertex
 10
6.669817333265228
 20
6.496301994593704
 30
0.0
  0
VERTEX
  5
285
330
1CB
100
AcDbEntity
  8
MAIN
 62
     5
100
AcDbVertex
100
AcDb2dVertex
 10
6.669817333265683
 20
6.496301994593704
 30
0.0
 42
-0.4142135622665412
  0
VERTEX
  5
286
330
1CB
100
AcDbEntity
  8
MAIN
 62
     5
100
AcDbVertex
100
AcDb2dVertex
 10
6.674817333265337
 20
6.501301994593358
 30
0.0
  0
VERTEX
  5
287
330
1CB
100
AcDbEntity
  8
MAIN
 62
     5
100
AcDbVertex
100
AcDb2dVertex
 10
6.674817333265337
 20
6.501301994593813
 30
0.0
  0
VERTEX
  5
288
330
1CB
100
AcDbEntity
  8
MAIN
 62
     5
100
AcDbVertex
100
AcDb2dVertex
 10
7.048065910384167
 20
6.501301994593813
 30
0.0
  0
VERTEX
  5
289
330
1CB
100
AcDbEntity
  8
MAIN
 62
     5
100
AcDbVertex
100
AcDb2dVertex
 10
7.048065910384167
 20
6.501301994594268
 30
0.0
 42
-0.4142135623814196
  0
VERTEX
  5
28A
330
1CB
100
AcDbEntity
  8
MAIN
 62
     5
100
AcDbVertex
100
AcDb2dVertex
 10
7.080065910383865
 20
6.46930199459366
 30
0.0
  0
VERTEX
  5
28B
330
1CB
100
AcDbEntity
  8
MAIN
 62
     5
100
AcDbVertex
100
AcDb2dVertex
 10
7.08006591038432
 20
6.46930199459366
 30
0.0
  0
VERTEX
  5
28C
330
1CB
100
AcDbEntity
  8
MAIN
 62
     5
100
AcDbVertex
100
AcDb2dVertex
 10
7.079923909438576
 20
6.044411331469927
 30
0.0
 42
-0.4142135624086132
  0
VERTEX
  5
28D
330
1CB
100
AcDbEntity
  8
MAIN
 62
     5
100
AcDbVertex
100
AcDb2dVertex
 10
7.049923909439741
 20
6.014411331469272
 30
0.0
  0
VERTEX
  5
28E
330
1CB
100
AcDbEntity
  8
MAIN
 62
     5
100
AcDbVertex
100
AcDb2dVertex
 10
7.049923909439741
 20
6.014411331470181
 30
0.0
  0
VERTEX
  5
28F
330
1CB
100
AcDbEntity
  8
MAIN
 62
     5
100
AcDbVertex
100
AcDb2dVertex
 10
6.827923909439078
 20
6.014411331467453
 30
0.0
 42
0.4142135623730951
  0
VERTEX
  5
290
330
1CB
100
AcDbEntity
  8
MAIN
 62
     5
100
AcDbVertex
100
AcDb2dVertex
 10
6.797923909440243
 20
5.984411331466798
 30
0.0
  0
VERTEX
  5
291
330
1CB
100
AcDbEntity
  8
MAIN
 62
     5
100
AcDbVertex
100
AcDb2dVertex
 10
6.797993389470349
 20
5.527508241152826
 30
0.0
  0
VERTEX
  5
292
330
1CB
100
AcDbEntity
  8
MAIN
 62
     5
100
AcDbVertex
100
AcDb2dVertex
 10
6.787994909912441
 20
5.517509761594919
 30
0.0
  0
VERTEX
  5
293
330
1CB
100
AcDbEntity
  8
MAIN
 62
     5
100
AcDbVertex
100
AcDb2dVertex
 10
6.797996430816994
 20
5.507508240690366
 30
0.0
  0
VERTEX
  5
294
330
1CB
100
AcDbEntity
  8
MAIN
 62
     5
100
AcDbVertex
100
AcDb2dVertex
 10
6.798065910385986
 20
5.050608191723039
 30
0.0
 42
0.4142135623642157
  0
VERTEX
  5
295
330
1CB
100
AcDbEntity
  8
MAIN
 62
     5
100
AcDbVertex
100
AcDb2dVertex
 10
6.828065910384822
 20
5.020608191723294
 30
0.0
  0
VERTEX
  5
296
330
1CB
100
AcDbEntity
  8
MAIN
 62
     5
100
AcDbVertex
100
AcDb2dVertex
 10
7.435870350660508
 20
5.020608191723294
 30
0.0
  0
VERTEX
  5
297
330
1CB
100
AcDbEntity
  8
MAIN
 62
     5
100
AcDbVertex
100
AcDb2dVertex
 10
7.445870350660726
 20
5.010608191723985
 30
0.0
  0
VERTEX
  5
298
330
1CB
100
AcDbEntity
  8
MAIN
 62
     5
100
AcDbVertex
100
AcDb2dVertex
 10
7.455870350660944
 20
5.020608191723294
 30
0.0
  0
VERTEX
  5
299
330
1CB
100
AcDbEntity
  8
MAIN
 62
     5
100
AcDbVertex
100
AcDb2dVertex
 10
8.036370350661883
 20
5.020608191723294
 30
0.0
 42
-0.4142135623784228
  0
VERTEX
  5
29A
330
1CB
100
AcDbEntity
  8
MAIN
 62
     5
100
AcDbVertex
100
AcDb2dVertex
 10
8.086370350661155
 20
4.970608191723112
 30
0.0
  0
VERTEX
  5
29B
330
1CB
100
AcDbEntity
  8
MAIN
 62
     5
100
AcDbVertex
100
AcDb2dVertex
 10
8.086370350661155
 20
4.671608191720405
 30
0.0
 42
-0.4142135623730951
  0
VERTEX
  5
29C
330
1CB
100
AcDbEntity
  8
MAIN
 62
     5
100
AcDbVertex
100
AcDb2dVertex
 10
8.026370350659846
 20
4.611608191720915
 30
0.0
  0
VERTEX
  5
29D
330
1CB
100
AcDbEntity
  8
MAIN
 62
     5
100
AcDbVertex
100
AcDb2dVertex
 10
8.026370350659846
 20
4.611608191720005
 30
0.0
  0
VERTEX
  5
29E
330
1CB
100
AcDbEntity
  8
MAIN
 62
     5
100
AcDbVertex
100
AcDb2dVertex
 10
7.922370350662305
 20
4.611608191722734
 30
0.0
  0
SEQEND
  5
29F
330
1CB
100
AcDbEntity
  8
MAIN
 62
     5
  0
ENDSEC
  0
SECTION
  2
OBJECTS
  0
DICTIONARY
  5
C
330
0
100
AcDbDictionary
  3
ACAD_GROUP
350
D
  3
ACAD_LAYOUT
350
1A
  3
ACAD_MLINESTYLE
350
17
  3
ACAD_PLOTSETTINGS
350
19
1001
ACAD
1000
TREAT_AS_HARD
1070
     0
  0
DICTIONARY
  5
1F9
330
1F
100
AcDbDictionary
  3
ACAD_LAYOUTSELFREF
350
1FA
  0
DICTIONARY
  5
1F7
330
1B
100
AcDbDictionary
  3
ACAD_LAYOUTSELFREF
350
1F8
  0
DICTIONARY
  5
D
102
{ACAD_REACTORS
330
C
102
}
330
C
100
AcDbDictionary
1001
ACAD
1000
TREAT_AS_HARD
1070
     0
  0
DICTIONARY
  5
1A
102
{ACAD_REACTORS
330
C
102
}
330
C
100
AcDbDictionary
1001
ACAD
1000
TREAT_AS_HARD
1070
     0
  0
DICTIONARY
  5
17
102
{ACAD_REACTORS
330
C
102
}
330
C
100
AcDbDictionary
  3
STANDARD
350
18
1001
ACAD
1000
TREAT_AS_HARD
1070
     0
  0
DICTIONARY
  5
19
102
{ACAD_REACTORS
330
C
102
}
330
C
100
AcDbDictionary
1001
ACAD
1000
TREAT_AS_HARD
1070
     0
  0
XRECORD
  5
1FA
102
{ACAD_REACTORS
330
1F9
102
}
330
1F9
100
AcDbXrecord
340
1F
  0
XRECORD
  5
1F8
102
{ACAD_REACTORS
330
1F7
102
}
330
1F7
100
AcDbXrecord
340
1B
  0
MLINESTYLE
  5
18
102
{ACAD_REACTORS
330
17
102
}
330
17
100
AcDbMlineStyle
  2
STANDARD
 70
     0
  3

 62
   256
 51
90.0
 52
90.0
 71
     2
 49
0.5
 62
   256
  6
BYLAYER
 49
-0.5
 62
   256
  6
BYLAYER
  0
ENDSEC
  0
EOF
